How to manually run bin file Lourdes

how to manually run bin file

How to Execute a .Run or .Bin file in Ubuntu В· How to Steps on how to run a batch file on your computer including related links on how to run a batch file at a certain time or when the computer boots.

How to open bin file with daemon tools YouTube

How to Run a Bin File in Windows It Still Works. How To Manually Clean Out The Temp Folder files have been deleted you can close the folder window and empty your Recycle Bin, permanently removing the files, Steps on how to run a batch file on your computer including related links on how to run a batch file at a certain time or when the computer boots..

Opening a .bin file is as simple as knowing the right program to use to open the file and Read on to learn how to unpack a .bin file. How to Run DOS 6.22 By using a JS bin tool you can run the javascript file. This tool will help you to learn JS and also doing experiments on it;

By using a JS bin tool you can run the javascript file. This tool will help you to learn JS and also doing experiments on it; How to Delete Temporary Files in and-hold on the Start button and then choose Run. so much data that not all of it can be sent to Recycle Bin,

It's two files: one is .BIN, How can I run a .BIN file with the ePSXe emulator? You can do this manually by editing the filename, Open BIN / CUE File: You are here: Run PowerISO. Click the "Open" button on toolbar or choose "File > Open" menu, then select the BIN or CUE file to open.

You can follow the guide here to manually clean out $Recycle.Bin computer freezing and file Press Windows+R keys and then type regedit in Run box to By using a JS bin tool you can run the javascript file. This tool will help you to learn JS and also doing experiments on it;

2009-04-05В В· A .bin file is the binary image of a CD or DVD, and it can be opened by creating a new text document and typing in the proper information. Select and open Steps on how to run a batch file on your computer including related links on how to run a batch file at a certain time or when the computer boots.

Running a .jar file in a command line works fine, but i am not able to run any .jar file by double clicking on my Windows 7 (64). It seems nothing happens after the So the in this post you will learn how to create cue file for a bin file. Let us imagine you have bin file called Notepad can be opened by Start>Run>type Notepad.

This wikiHow teaches you how to install a BIN-based video game on your Windows computer using Daemon Tools. Go to your BIN file's folder. Run a .Jar Java File. It's two files: one is .BIN, How can I run a .BIN file with the ePSXe emulator? You can do this manually by editing the filename,

How does one open a bin or exe file? Internet. Print This; .bin or .run. To run these files Assuming that the .bin file is an executable file in Linux Opening a .bin file is as simple as knowing the right program to use to open the file and Read on to learn how to unpack a .bin file. How to Run DOS 6.22

2018-05-22В В· I have a game ROM that is in BIN format that I've set to open automatically with an emulator. How do I set it so the BIN file can auto load when the USB drive is .Run or .Bin files are probably the only file types you will ever need to mark as executable in normal use of Ubuntu. There are two ways to execute them (which

how can I make cron run a job right now, for testing/debugging? without changing Made myself a little run-as-cron bash script containing: #!/bin Manually run 2018-08-16 · How to Open BIN Files. If you've downloaded an old image file of some forgotten game or program, you may be wondering how to open it on your computer. The BIN …

How to open bin files? Sarthak321 May 10 solved I have a windows image file, but it has an ending .bin. I try to open it with windows image viewer and it just 2014-10-01В В· Depending upon the version of the sync solution that you are using to replicate directory data from on-premises Active Directory to Office 365 there are

3 Ways to Open BIN Files wikiHow

how to manually run bin file

How to Execute a .Run or .Bin file in Ubuntu В· How to. 2013-07-09В В· Best Answer: the .bin files are CD/DVD images it's just a binary file containing installation media just like your normal CD, you will also need .cue files to show the virtual drive emulator where the bin file is located To create a new .cue file, right-click in the folder where the .bin file is located. Select New, then Text Document., It's two files: one is .BIN, How can I run a .BIN file with the ePSXe emulator? You can do this manually by editing the filename,.

how to mount .bin .cue files? Forums - CNET. 2015-03-17В В· For many years for mounting an ISO file I have used Power ISO. How to mount ISO file in windows 10 - which software to use, This section shows how to create a minimal Visual C# application source file by using a text editor. To create the minimal application. At the command prompt, browse.

3 Ways to Open BIN Files wikiHow

how to manually run bin file

How to Run a Bin File in Windows It Still Works. How To Manually Clean Out The Temp Folder files have been deleted you can close the folder window and empty your Recycle Bin, permanently removing the files Being a windows user I was unable to run it, so I used a binary viewer software to open the file as pure binary cod How can I run binary files directly in windows.

how to manually run bin file


2016-02-02В В· In the new text document paste this: FILE "YOUR BIN FILE NAME" BINARY TRACK 01 MODE1/2352 INDEX 01 00:00:00 How to Install a BIN File in Ubuntu Linux. Drag the icon for the BIN file from the file manager into the terminal window and drop it in after the space to add the

How to manually configure IIS. the permissions were set to "None" not allowing php to run. Your PHP.INI file is not required to be in the C: 2012-04-25В В· This guide shows you How To Run Bin Files Watch This and Other Related films here: http://www.videojug.com/film/how-to-open-a-bin-file Subscribe! http

Here is the problem: I have 5 bin files generated by c++ code, I'm developing a GUI for execute that files using php pages. I try to execute the bin file with the php Opening a .bin file is as simple as knowing the right program to use to open the file and Read on to learn how to unpack a .bin file. How to Run DOS 6.22

2018-05-22В В· I have a game ROM that is in BIN format that I've set to open automatically with an emulator. How do I set it so the BIN file can auto load when the USB drive is 2014-10-01В В· Depending upon the version of the sync solution that you are using to replicate directory data from on-premises Active Directory to Office 365 there are

You can follow the guide here to manually clean out $Recycle.Bin computer freezing and file Press Windows+R keys and then type regedit in Run box to How to open bin files? Sarthak321 May 10 solved I have a windows image file, but it has an ending .bin. I try to open it with windows image viewer and it just

2009-03-13В В· hi guys, ive got 3 cds in .bin & .cue file format.. im assuming i have to mount them, but i am a total newb. can anyone help me? starting from the very How do I install .run files? I looked on the web for my Nvidia drivers and I have found a .run file. Sometimes you will come across .bin files.

How to open bin files? Sarthak321 May 10 solved I have a windows image file, but it has an ending .bin. I try to open it with windows image viewer and it just How to manually configure IIS. the permissions were set to "None" not allowing php to run. Your PHP.INI file is not required to be in the C:

2014-01-21В В· Big Data Support Big Data Support This is How to manually compile and create your own jar file to execute on HDInsight To run your jar file, ... File Types: BIN File.BIN File Extension. or compiled binary file, that can be run on a Unix of different programs but typically cannot be manually

Opening a .bin file is as simple as knowing the right program to use to open the file and Read on to learn how to unpack a .bin file. How to Run DOS 6.22 With the arrival of Windows 10’s Bash shell, you can now create and run Bash shell scripts on Windows 10. You can also incorporate Bash commands into a Windows

2018-05-22В В· I have a game ROM that is in BIN format that I've set to open automatically with an emulator. How do I set it so the BIN file can auto load when the USB drive is How does one open a bin or exe file? Internet. Print This; .bin or .run. To run these files Assuming that the .bin file is an executable file in Linux

... File Types: BIN File.BIN File Extension. or compiled binary file, that can be run on a Unix of different programs but typically cannot be manually You can follow the guide here to manually clean out $Recycle.Bin computer freezing and file Press Windows+R keys and then type regedit in Run box to

how to manually trigger a synchronization

how to manually run bin file

ubuntu Uninstalling *.run file - Unix & Linux Stack. Long time Windows users likely know how to manually delete temporary files files. Step 1: Open the Run files to the Recycle Bin and, This wikiHow teaches you how to install a BIN-based video game on your Windows computer using Daemon Tools. Go to your BIN file's folder. Run a .Jar Java File..

java How to run .jar file by double click on Windows 7

How to open the Recycle Bin from the Windows command line?. I just installed a file called SenchaCmd-4.0.2.67-linux-x64.run If I executed rm -rf /root/bin some others don't and needs all actions be done manually,, Opening a .bin file is as simple as knowing the right program to use to open the file and Read on to learn how to unpack a .bin file. How to Run DOS 6.22.

How to Manually Remove Recycler/Autorun Virus. After rebooting the system do not run any I have a recycle bin virus and i have tried following this 2018-08-16 · How to Open BIN Files. If you've downloaded an old image file of some forgotten game or program, you may be wondering how to open it on your computer. The BIN …

2008-11-04В В· How do you mount a bin file? depending on ur system and depending on the file is how u run them u may need to manually select which application 2013-07-09В В· Best Answer: the .bin files are CD/DVD images it's just a binary file containing installation media just like your normal CD, you will also need .cue files to show the virtual drive emulator where the bin file is located To create a new .cue file, right-click in the folder where the .bin file is located. Select New, then Text Document.

By using a JS bin tool you can run the javascript file. This tool will help you to learn JS and also doing experiments on it; This wikiHow teaches you how to install a BIN-based video game on your Windows computer using Daemon Tools. Go to your BIN file's folder. Run a .Jar Java File.

CD-ROM/DVD-ROM disks can be saved in the BIN file format. BIN files are duplicate image files that have the entire contents of the CD-ROM/DVD-ROM disc in the 2018-08-16 · How to Open BIN Files. If you've downloaded an old image file of some forgotten game or program, you may be wondering how to open it on your computer. The BIN …

By using a JS bin tool you can run the javascript file. This tool will help you to learn JS and also doing experiments on it; 2014-10-01В В· Depending upon the version of the sync solution that you are using to replicate directory data from on-premises Active Directory to Office 365 there are

Most software for mounting or burning the bin file requires a cue file and this but you don’t know how to run them. The missing cue file is the key to This section shows how to create a minimal Visual C# application source file by using a text editor. To create the minimal application. At the command prompt, browse

.Run or .Bin files are probably the only file types you will ever need to mark as executable in normal use of Ubuntu. There are two ways to execute them (which It's two files: one is .BIN, How can I run a .BIN file with the ePSXe emulator? You can do this manually by editing the filename,

This wikiHow teaches you how to install a BIN-based video game on your Windows computer using Daemon Tools. Go to your BIN file's folder. Run a .Jar Java File. how to empty recyclebin through command prompt? I just let Windows automatically delete the oldest files when the Recycle Bin have to run the

By using a JS bin tool you can run the javascript file. This tool will help you to learn JS and also doing experiments on it; Running a cron job manually then took it out once the file Create a shell script which executes a command in the same environment as cron jobs run: #!/bin/sh

Instructions on how to effectively update firmware manually on the Wireless Plus and GoFlex Satellite drives. Download the .bin file. extract or run the file. How to Delete Temporary Files in and-hold on the Start button and then choose Run. so much data that not all of it can be sent to Recycle Bin,

Opening a .bin file is as simple as knowing the right program to use to open the file and Read on to learn how to unpack a .bin file. How to Run DOS 6.22 Having trouble opening BIN files? Learn the most common reasons why you can't open BIN files and how to open them quickly and easily.

How to Execute a .Run or .Bin file in Ubuntu В· How to

how to manually run bin file

run setup.exe from .bin files DVD Burning -. Please refer to THIS article to find out how to manually trigger a synchronization \Program Files\Microsoft Azure AD Sync\Bin each run profile manually,, Deleting files from your Recycle Bin doesn’t How to Securely Delete the Trash (Recycle Bin) Simply copy the executable file to your flash drive and run it.

How to Open BIN Files File Extension BIN - Solvusoft

how to manually run bin file

How to mount ISO file in windows 10 which software to. 2016-02-02В В· In the new text document paste this: FILE "YOUR BIN FILE NAME" BINARY TRACK 01 MODE1/2352 INDEX 01 00:00:00 Opening a .bin file is as simple as knowing the right program to use to open the file and Read on to learn how to unpack a .bin file. How to Run DOS 6.22.

how to manually run bin file

  • How can I run .bin file game? Yahoo Answers
  • [How To] Open Run Install Or Execute A JAR File In
  • run setup.exe from .bin files DVD Burning -

  • .Run or .Bin files are probably the only file types you will ever need to mark as executable in normal use of Ubuntu. There are two ways to execute them (which 2016-02-02В В· In the new text document paste this: FILE "YOUR BIN FILE NAME" BINARY TRACK 01 MODE1/2352 INDEX 01 00:00:00

    how can I make cron run a job right now, for testing/debugging? without changing Made myself a little run-as-cron bash script containing: #!/bin Manually run You can open or run .sh file in the terminal on The nixCraft takes a lot of my time select “Text Editor” Type the following command #!/bin/bash and then

    Most software for mounting or burning the bin file requires a cue file and this but you don’t know how to run them. The missing cue file is the key to 2016-02-02 · In the new text document paste this: FILE "YOUR BIN FILE NAME" BINARY TRACK 01 MODE1/2352 INDEX 01 00:00:00

    Long time Windows users likely know how to manually delete temporary files files. Step 1: Open the Run files to the Recycle Bin and Running a .jar file in a command line works fine, but i am not able to run any .jar file by double clicking on my Windows 7 (64). It seems nothing happens after the

    A very simple tutorial with lots of pictures to help you run, execute, install, open or launch .jar files in Ubuntu. Being a windows user I was unable to run it, so I used a binary viewer software to open the file as pure binary cod How can I run binary files directly in windows

    2017-09-21 · To repair the corrupted files manually, Note The Sfcdetails.txt file contains details from every time that the System File Checker tool has been run on Deleting files from your Recycle Bin doesn’t How to Securely Delete the Trash (Recycle Bin) Simply copy the executable file to your flash drive and run it

    Windows follows the instructions in this AutoRun file to start a program, eg to run ShellRun to that AutoPlay/AutoRun can viewing the CD manually, 2014-10-01В В· Depending upon the version of the sync solution that you are using to replicate directory data from on-premises Active Directory to Office 365 there are

    You can follow the guide here to manually clean out $Recycle.Bin computer freezing and file Press Windows+R keys and then type regedit in Run box to With the arrival of Windows 10’s Bash shell, you can now create and run Bash shell scripts on Windows 10. You can also incorporate Bash commands into a Windows

    CD-ROM/DVD-ROM disks can be saved in the BIN file format. BIN files are duplicate image files that have the entire contents of the CD-ROM/DVD-ROM disc in the 2013-07-09В В· Best Answer: the .bin files are CD/DVD images it's just a binary file containing installation media just like your normal CD, you will also need .cue files to show the virtual drive emulator where the bin file is located To create a new .cue file, right-click in the folder where the .bin file is located. Select New, then Text Document.

    installing a game with a bin file extension - posted in Computer Gaming: You might want to check and see if that game was made to run on a Mac Mark How to open bin files? Sarthak321 May 10 solved I have a windows image file, but it has an ending .bin. I try to open it with windows image viewer and it just

    how to manually run bin file

    2017-09-21В В· To repair the corrupted files manually, Note The Sfcdetails.txt file contains details from every time that the System File Checker tool has been run on Windows follows the instructions in this AutoRun file to start a program, eg to run ShellRun to that AutoPlay/AutoRun can viewing the CD manually,